War For The Planet Of The Apes 2017 1080p BluRay DD 5.1 x264 ESub...

  • Category Movies
  • Type HD
  • Language English
  • Total size 2.2 GB
  • Uploaded By moviezworldz
  • Downloads 142
  • Last checked 36 minutes ago
  • Date uploaded 2 months ago
  • Seeders 22
  • Leechers 15

War for the Planet of the Apes

ActionAdventureDramaScience Fiction

Caesar and his apes are forced into a deadly conflict with an army of humans led by a ruthless Colonel. After the apes suffer unimaginable losses, Caesar wrestles with his darker instincts and begins his own mythic quest to avenge his kind. As the journey finally brings them face to face, Caesar and the Colonel are pitted against each other in an epic battle that will determine the fate of both their species and the future of the planet.

Infohash : 3E779EE2923C71EBF63E16148D30A01180CF8735


General
Format : Matroska
Format version : Version 4 / Version 2
File size : 2.20 GiB
Duration : 2 h 20 min
Overall bit rate : 2 250 kb/s

Video
ID : 1
Format : AVC
Format/Info : Advanced Video Codec
Format profile : [email protected]
Format settings : CABAC / 4 Ref Frames
Format settings, CABAC : Yes
Format settings, RefFrames : 4 frames
Codec ID : V_MPEG4/ISO/AVC
Duration : 2 h 20 min
Bit rate : 2 000 kb/s
Width : 1 920 pixels
Height : 800 pixels
Display aspect ratio : 2.40:1
Frame rate mode : Constant
Frame rate : 23.976 (23976/1000) FPS
Color space : YUV
Chroma subsampling : 4:2:0
Bit depth : 8 bits
Scan type : Progressive
Bits/(Pixel*Frame) : 0.054
Stream size : 1.95 GiB (89%)
Writing library : x264 core 148 r2643 5c65704
Language : English
Default : Yes
Forced : No

Audio
ID : 2
Format : AC-3
Format/Info : Audio Coding 3
Format settings, Endianness : Big
Codec ID : A_AC3
Duration : 2 h 20 min
Bit rate mode : Constant
Bit rate : 256 kb/s
Channel(s) : 6 channels
Channel positions : Front: L C R, Side: L R, LFE
Sampling rate : 48.0 kHz
Frame rate : 31.250 FPS (1536 SPF)
Bit depth : 16 bits
Compression mode : Lossy
Stream size : 257 MiB (11%)
Service kind : Complete Main
Default : Yes
Forced : No

Text
ID : 3
Format : UTF-8
Codec ID : S_TEXT/UTF8
Codec ID/Info : UTF-8 Plain Text
Duration : 2 h 12 min
Bit rate : 39 b/s
Count of elements : 1013
Stream size : 38.0 KiB (0%)
Default : Yes
Forced : No







Files:

War For The Planet Of The Apes 2017 1080p BluRay DD 5.1 x264 ESub
  • War For The Planet Of The Apes 2017 1080p BluRay DD 5.1 x264 ESub.mkv (2.2 GB)

There are currently no comments. Feel free to leave one :)

Code:

  • http://ipv4.tracker.harry.lu/announce
  • http://ipv4.tracker.harry.lu:80/announce
  • udp://tracker.pirateparty.gr:6969/announce
  • http://tracker.devil-torrents.pl:80/announce
  • http://tracker.devil-torrents.pl/announce
  • http://open.kickasstracker.com/announce
  • http://open.kickasstracker.com:443/announce
  • udp://p4p.arenabg.com:1337/announce
  • udp://9.rarbg.me:2770/announce
  • udp://9.rarbg.com:2740/announce
  • udp://9.rarbg.to:2750/announce
  • udp://tracker.coppersurfer.tk:6969/announce
  • udp://tracker.leechers-paradise.org:6969/announce
  • udp://tracker.zer0day.to:1337/announce
  • http://tracker.devil-torrents.pl/announce