War.For.The.Planet.Of.The.Apes.2017.BRRip.1080p.x264.AAC.5.1.-.Ho...

  • Category Movies
  • Type HD
  • Language English
  • Total size 3.3 GB
  • Uploaded By Hon3yHD
  • Downloads 425
  • Last checked 2 days ago
  • Date uploaded 6 days ago
  • Seeders 22
  • Leechers 11

War for the Planet of the Apes

ActionAdventureDramaScience Fiction

Caesar and his apes are forced into a deadly conflict with an army of humans led by a ruthless Colonel. After the apes suffer unimaginable losses, Caesar wrestles with his darker instincts and begins his own mythic quest to avenge his kind. As the journey finally brings them face to face, Caesar and the Colonel are pitted against each other in an epic battle that will determine the fate of both their species and the future of the planet.

Infohash : D83C608315F7CBB49976D1D90C20774F1168A908





Format                      : Matroska
Format version              : Version 4 / Version 2
File size                   : 3.25 GiB
Duration                    : 2 h 20 min
Overall bit rate            : 3 321 kb/s

Video
ID                          : 1
Format                      : AVC
Format/Info                 : Advanced Video Codec
Format profile              : [email protected]
Format settings, CABAC      : Yes
Format settings, RefFrames  : 5 frames
Codec ID                    : V_MPEG4/ISO/AVC
Duration                    : 2 h 20 min
Bit rate                    : 3 000 kb/s
Width                       : 1 920 pixels
Height                      : 800 pixels
Display aspect ratio        : 2.40:1
Frame rate mode             : Constant
Frame rate                  : 23.976 (24000/1001) FPS

Audio
ID                          : 2
Format                      : AAC
Format/Info                 : Advanced Audio Codec
Format profile              : LC
Codec ID                    : A_AAC
Duration                    : 2 h 20 min
Bit rate                    : 320 kb/s
Channel(s)                  : 6 channels
Channel positions           : Front: L C R, Side: L R, LFE
Sampling rate               : 48.0 kHz
Frame rate                  : 46.875 FPS (1024 SPF)
Compression mode            : Lossy
Delay relative to video     : -21 ms
Stream size                 : 321 MiB (10%)
Title                       : Surround
Language                    : English


Text
ID                          : 3
Format                      : ASS
Codec ID                    : S_TEXT/ASS
Codec ID/Info               : Advanced Sub Station Alpha
Duration                    : 1 h 42 min
Bit rate                    : 11 b/s
Count of elements           : 192
Compression mode            : Lossless
Stream size                 : 8.42 KiB (0%)
Language                    : English
Default                     : No
Forced                      : No

Menu
00:00:00.000                : :00:00:00.000
00:05:05.889                : :00:05:05.889
00:09:06.713                : :00:09:06.713
00:12:14.108                : :00:12:14.108
00:18:21.017                : :00:18:21.017
00:25:04.503                : :00:25:04.503
00:30:17.399                : :00:30:17.399
00:34:13.093                : :00:34:13.093
00:37:46.347                : :00:37:46.347
00:42:54.447                : :00:42:54.447
00:49:31.802                : :00:49:31.802
00:54:14.626                : :00:54:14.626
00:58:49.818                : :00:58:49.818
01:05:24.129                : :01:05:24.129
01:10:18.381                : :01:10:18.381
01:14:53.823                : :01:14:53.823
01:18:59.193                : :01:18:59.193
01:25:35.672                : :01:25:35.672
01:29:37.372                : :01:29:37.372
01:34:22.824                : :01:34:22.824
01:39:27.712                : :01:39:27.712
01:43:48.222                : :01:43:48.222
01:48:45.394                : :01:48:45.394
01:55:20.580                : :01:55:20.580
01:58:04.703                : :01:58:04.703
02:02:33.930                : :02:02:33.930
02:05:54.797                : :02:05:54.797
02:12:51.255                : :02:12:51.213

http://hon3yhd.to/










Files:

War.For.The.Planet.Of.The.Apes.2017.BRRip.1080p.x264.AAC.5.1.-.Hon3y
  • www.hon3yhd.to.txt (0.1 KB)
  • War.For.The.Planet.Of.The.Apes.2017.BRRip.1080p.x264.AAC.5.1.-.Hon3y.srt (45.3 KB)
  • War.For.The.Planet.Of.The.Apes.2017.BRRip.1080p.x264.AAC.5.1.-.Hon3y.mkv (3.3 GB)

Comments

Code:

  • http://ipv4.tracker.harry.lu/announce
  • http://ipv4.tracker.harry.lu:80/announce
  • http://opentracker-milanesi.rhcloud.com/announce
  • http://t.nyaatracker.com/announce
  • http://tracker.devil-torrents.pl:80/announce
  • http://tracker.devil-torrents.pl/announce
  • http://open.kickasstracker.com/announce
  • http://opentracker-milanesi.rhcloud.com:80/announce
  • http://open.kickasstracker.com:443/announce
  • http://opentracker-milanesi.rhcloud.com:443/announce
  • http://t.nyaatracker.com:80/announce
  • udp://9.rarbg.me:2770/announce
  • udp://9.rarbg.com:2740/announce
  • udp://9.rarbg.to:2750/announce
  • udp://tracker.coppersurfer.tk:6969/announce